<?xml version="1.0" standalone="no"?>
<!DOCTYPE svg PUBLIC "-//W3C//DTD SVG 1.1//EN" "http://www.w3.org/Graphics/SVG/1.1/DTD/svg11.dtd" >
<!--
2013-9-30: Created.
-->
<svg>
<metadata>
Created by iconfont
</metadata>
<defs>

<font id="iconfont" horiz-adv-x="1024" >
  <font-face
    font-family="iconfont"
    font-weight="500"
    font-stretch="normal"
    units-per-em="1024"
    ascent="896"
    descent="-128"
  />
    <missing-glyph />
    
    <glyph glyph-name="zhuanfa1" unicode="&#58911;" d="M958.395133 241.842439l-0.00307-1.023306-126.17895-104.267738 0 0.008186 0-139.356908c0-9.611915-7.792804-17.404392-17.405122-17.404392L209.545065-20.201719c-9.612319 0-17.405122 7.792477-17.405122 17.404392L192.139943 410.579491c0 9.611915 7.792804 17.404392 17.405122 17.404392L314.120092 427.983883c0 0 0 0 0 0l-0.157596 0c52.471204 94.378507 116.981088 126.926808 117.915406 127.394459L81.51897 555.378341c-9.612319 0-17.405122-7.792477-17.405122-17.404392l0-667.584498c0-9.611915 7.792804-17.404392 17.405122-17.404392L942.139231-147.01494c9.612319 0 17.405122 7.792477 17.405122 17.404392L959.544354 241.842439 958.395133 241.842439zM958.392063 463.628708 684.813994 682.437156l0-137.000234c-137.372343-0.016373-223.83716-52.884464-278.218957-117.452016l-0.010233 0c0 0 0 0 0 0l0.010233 0c-85.318665-101.299127-91.658313-231.398184-91.658313-231.398184 99.887064 164.049287 161.346344 194.778148 352.896838 194.778148l16.980432 0 0-155.38393L958.392063 463.628708z"  horiz-adv-x="1024" />

    
    <glyph glyph-name="shezhi" unicode="&#59477;" d="M841.167416 475.358731c-7.54893 27.369348-18.548448 53.312206-32.324196 77.458139 15.694447 21.087271 69.696362 99.936083 30.774911 138.872884l-19.97596 21.079084c-33.274848 33.283034-118.29829-18.686594-138.946562-32.149211-24.409946 13.846356-50.629097 24.854061-78.335113 32.333406-4.464685 26.403347-23.871687 118.743428-78.641081 118.743428L501.812475 831.696462c-47.036269 0-74.006528-95.485725-80.036871-119.417787-27.322275-7.624654-53.188386-18.655895-77.244268-32.446993-19.023262 14.113439-100.4549 70.38607-140.219555 30.652114l-21.081131-17.735943c-34.641985-34.639938 22.920012-125.984343 33.44574-141.985782-13.317307-23.74889-23.994484-49.184189-31.327496-76.032674-22.981411-3.665483-121.044844-22.575158-121.044844-79.008448l0-21.907962c0-48.878221 102.849436-76.032674 121.612779-80.573083 7.440459-26.632567 18.180058-51.901067 31.527041-75.449389-11.06194-17.35118-66.382896-108.296495-32.064276-142.637628l19.97596-16.607236c45.165666-45.181015 139.54622 29.049616 139.54622 29.049616l-4.387937 4.670369c25.038256-14.83487 52.131311-26.524097 80.773651-34.579563 4.679579-19.268856 31.834033-121.381511 80.527035-121.381511l21.907962 0c63.897286 0 79.746252 119.218242 79.746252 119.218242l-5.861498 0.169869c28.964682 7.394411 56.394405 18.531052 81.8471 32.800034 19.959587-13.300934 103.555517-65.600067 136.922463-32.233122l22.198581 22.215978c44.568055 44.535309-27.936259 135.663796-29.960359 138.195455 13.775748 24.110117 24.822338 49.967018 32.400944 77.30669 24.914436 6.328126 118.68203 33.214473 118.68203 79.837326l0 21.907962C959.69595 457.609485 848.132038 474.362031 841.167416 475.358731zM512.122285 132.029268c-139.070382 0-251.846912 112.760157-251.846912 251.846912s112.77653 251.846912 251.846912 251.846912c139.102105 0 251.846912-112.760157 251.846912-251.846912S651.22439 132.029268 512.122285 132.029268zM512.122285 551.775144c-92.709495 0-167.896918-75.17412-167.896918-167.897941 0-92.715635 75.188446-167.896918 167.896918-167.896918 92.723821 0 167.896918 75.181283 167.896918 167.896918C680.019203 476.601025 604.846106 551.775144 512.122285 551.775144zM512.122285 299.928233c-46.362934 0-83.947947 37.57171-83.947947 83.948971s37.585013 83.947947 83.947947 83.947947c46.39261 0 83.948971-37.570687 83.948971-83.947947S558.514895 299.928233 512.122285 299.928233z"  horiz-adv-x="1024" />

    
    <glyph glyph-name="duihao1" unicode="&#58930;" d="M918.016 597.219556 410.055111 91.079111C398.904889 79.985778 384.284444 74.695111 369.664 74.979556 355.043556 74.695111 340.423111 79.985778 329.272889 91.079111L106.154667 313.400889C84.366222 335.132444 84.366222 370.346667 106.154667 392.078222 127.943111 413.809778 163.328 413.809778 185.116444 392.078222L369.664 208.156444 838.997333 675.896889C860.842667 697.628444 896.170667 697.628444 918.016 675.896889 939.804444 654.165333 939.804444 618.951111 918.016 597.219556Z"  horiz-adv-x="1024" />

    
    <glyph glyph-name="20pxqqqun" unicode="&#59005;" d="M793.6 278.4c67.2 35.2 112 112 99.2 198.4-12.8 83.2-83.2 153.6-166.4 163.2-9.6 0-19.2 0-32 0-32 48-83.2 80-137.6 92.8-92.8 19.2-179.2-22.4-230.4-92.8-9.6 0-19.2 0-32 0-86.4-9.6-153.6-76.8-166.4-163.2-12.8-86.4 32-163.2 99.2-198.4-6.4-16-12.8-28.8-16-44.8-16-48-28.8-112-38.4-166.4-3.2-19.2 12.8-38.4 32-38.4 16 0 28.8 9.6 32 25.6 9.6 51.2 19.2 112 35.2 153.6C278.4 224 281.6 236.8 288 252.8l22.4 54.4-51.2 28.8c-54.4 28.8-80 89.6-64 150.4 12.8 41.6 48 76.8 92.8 86.4 3.2 0 3.2 0 6.4 0C291.2 553.6 288 534.4 288 512c0-80 44.8-153.6 108.8-192-3.2-9.6-9.6-22.4-12.8-32-22.4-64-38.4-150.4-51.2-220.8-3.2-19.2 12.8-35.2 32-35.2 16 0 28.8 12.8 32 25.6 9.6 64 25.6 150.4 48 208 3.2 9.6 6.4 19.2 12.8 28.8l19.2 51.2-48 28.8c-57.6 35.2-86.4 99.2-73.6 166.4 9.6 64 60.8 115.2 124.8 128C582.4 691.2 672 611.2 672 512c0-57.6-28.8-108.8-76.8-137.6l-48-28.8 19.2-51.2c3.2-9.6 6.4-19.2 12.8-28.8 19.2-57.6 35.2-144 48-208 3.2-16 16-25.6 32-25.6 19.2 0 35.2 16 32 35.2C678.4 137.6 662.4 224 640 288c-3.2 9.6-6.4 22.4-12.8 32 73.6 44.8 121.6 134.4 105.6 230.4 0 6.4-3.2 16-6.4 22.4 3.2 0 3.2 0 6.4 0 44.8-9.6 80-44.8 92.8-86.4 19.2-60.8-9.6-124.8-64-150.4l-51.2-28.8 22.4-54.4c6.4-16 12.8-28.8 16-38.4 16-44.8 28.8-105.6 35.2-153.6 3.2-16 16-25.6 32-25.6 19.2 0 35.2 19.2 32 38.4-9.6 54.4-22.4 118.4-38.4 166.4C806.4 249.6 800 262.4 793.6 278.4z"  horiz-adv-x="1024" />

    
    <glyph glyph-name="jiantou" unicode="&#58965;" d="M757.153963 452.080905C753.290069 455.944755 748.667904 458.544734 743.792981 460.314163L318.696619 885.410509C304.613376 899.52983 281.755307 899.52983 267.635968 885.410509 253.516629 871.291187 253.516629 848.43305 267.635968 834.349833L677.963008 423.986697 267.635968 13.623561C253.516629-0.495761 253.516629-23.317786 267.635968-37.437107 281.755307-51.556437 304.613376-51.556437 318.696619-37.437107L743.792981 387.65923C748.667904 389.428659 753.290069 391.992525 757.153963 395.892497 764.881664 403.620207 767.9872 413.911782 767.228843 423.986697 767.9872 434.061611 764.881664 444.353186 757.153963 452.080905L757.153963 452.080905Z"  horiz-adv-x="1024" />

    
    <glyph glyph-name="nan" unicode="&#58980;" d="M434.537424 553.404617c-138.75727 0-251.523134-111.435595-251.523134-248.555611 0-137.017688 112.868192-248.453283 251.523134-248.453283 138.654942 0 251.625462 111.537923 251.625462 248.453283C686.060558 441.969022 573.192365 553.404617 434.537424 553.404617L434.537424 553.404617zM957.230738 490.370341 838.120516 490.370341 838.120516 623.806535l-104.579594-103.351654c44.819826-60.476067 71.629859-134.868792 71.629859-215.503548 0-201.893874-166.181273-366.130908-370.633357-366.130908-204.349755 0-370.633357 164.237034-370.633357 366.130908 0 201.893874 166.283601 366.233237 370.633357 366.233237 79.918457 0 153.697212-25.377436 214.275607-67.946038l112.663536 111.333267L609.825922 714.5718l0 117.677626 347.404817 0L957.230738 490.370341 957.230738 490.370341 957.230738 490.370341z"  horiz-adv-x="1024" />

    
    <glyph glyph-name="nv" unicode="&#58951;" d="M870.69952 742.69952c-66.10688 66.10944-154.00448 102.51776-247.49696 102.51904-93.49248 0-181.3888-36.40832-247.49696-102.51648-66.11072-66.10944-102.51648-154.00576-102.51648-247.49952-0.00128-76.19968 24.19072-148.6784 68.93056-208.67584l-60.2048-60.20352L138.18496 370.05312c-19.99488 19.99488-52.41216 19.99488-72.40704 0-19.99488-19.9936-19.99488-52.41216 0-72.40704l143.72992-143.72992-55.75552-55.75552c-19.9936-19.9936-19.9936-52.41216 0-72.40576 19.99616-19.99616 52.41344-19.99488 72.40832 0l55.75424 55.75424 143.7312-143.72992c19.9936-19.99488 52.41088-19.99488 72.40576 0 19.99616 19.99488 19.99616 52.41216 0 72.40704L354.32192 153.91488l60.2048 60.20352c59.99872-44.73856 132.47616-68.93184 208.67584-68.93184 93.49248 0 181.38752 36.40832 247.49696 102.51776s102.51776 154.00576 102.51776 247.49824C973.21728 588.69504 936.80768 676.59264 870.69952 742.69952zM798.29248 320.11264c-46.76736-46.76736-108.94976-72.5248-175.08992-72.5248s-128.32128 25.75744-175.08992 72.5248c-46.76864 46.76736-72.5248 108.94976-72.5248 175.08992 0.00128 66.14272 25.75616 128.32384 72.5248 175.0912 46.76736 46.76864 108.94976 72.5248 175.08992 72.5248 66.14016-0.00128 128.32256-25.75744 175.08992-72.52608 46.76736-46.76736 72.5248-108.94848 72.5248-175.08864C870.81728 429.0624 845.0624 366.88128 798.29248 320.11264z"  horiz-adv-x="1024" />

    
    <glyph glyph-name="qqkongjian" unicode="&#58937;" d="M778.93632 208.78336c-107.93984 8.56064-215.90016 17.1008-323.84 25.64096 5.8368 2.85696 11.6736 5.72416 17.50016 8.56064 99.18464 71.2192 198.4 142.45888 297.5744 213.67808l-17.5104 0c-107.15136 46.2848-437.11488 35.95264-533.87264-8.5504 128.34816-8.54016 256.74752-17.09056 385.09568-25.64096-2.9184-5.69344-5.8368-11.39712-8.74496-17.09056C490.12736 336.9984 385.08544 268.5952 280.064 200.2432l0-8.54016c191.49824-25.78432 400.4352-2.6624 577.65888 17.08032l0-8.54016-17.52064 0c-32.43008-25.51808-37.56032-11.60192-43.75552-68.38272 14.60224-71.2192 29.19424-142.45888 43.75552-213.6576-2.89792-2.85696-5.81632-5.70368-8.74496-8.56064l-35.0208 0c-70.06208 59.17696-196.4032 144.32256-306.3296 153.856-90.42944-51.3024-180.8896-102.58432-271.31904-153.856-11.66336 5.70368-23.3472 11.39712-35.01056 17.1008 20.41856 111.104 40.84736 222.23872 61.26592 333.34272C163.3792 334.14144 81.68448 408.22784 0 482.304c1.96608 5.76512 3.93216 11.52 5.89824 17.28512 0.31744 0.9216 0.63488 1.85344 0.95232 2.77504 0.63488 1.86368 1.26976 3.70688 1.90464 5.57056 107.93984 14.24384 215.90016 28.49792 323.84 42.73152 58.33728 102.56384 116.69504 205.13792 175.04256 307.69152l17.50016 0c49.59232-105.40032 99.20512-210.83136 148.77696-316.24192 113.75616-11.39712 227.57376-22.79424 341.34016-34.19136 2.9184-5.69344 5.81632-11.39712 8.74496-17.09056-81.68448-79.7696-163.3792-159.56992-245.06368-239.32928C778.93632 237.28128 778.93632 223.01696 778.93632 208.78336L778.93632 208.78336z"  horiz-adv-x="1024" />

    
    <glyph glyph-name="huabi1" unicode="&#59195;" d="M993.894738 683.6224l-182.272 182.272C791.552338 885.9648 765.235538 896 738.713938 896c-26.4192 0-52.8384-10.0352-72.9088-30.0032l-23.04-23.04-433.5616-433.664L63.385938 263.4752C52.941138 253.952 46.285138 240.3328 46.285138 225.28L2.355538-61.8496C0.819538-66.56 0.000338-71.5776 0.000338-76.8c-0.1024-28.16 22.8352-51.2 50.9952-51.2h0.2048c5.12 0 10.1376 0.8192 14.9504 2.2528L353.280338-81.8176c15.0528 0.1024 28.672 6.656 38.1952 17.1008l145.8176 145.92 433.5616 433.5616 23.1424 23.04c40.0384 40.1408 40.0384 105.7792-0.1024 145.8176zM501.043538 117.4528L355.225938-28.4672l-1.3312-1.2288-0.7168-0.9216h-3.7888l-3.8912-0.6144L58.368338-75.0592l-3.4816-0.8192-3.6864-1.1264 1.1264 3.584 0.512 3.7888 43.9296 287.1296 0.6144 3.6864v3.7888l2.1504 2.1504 145.8176 145.92L537.907538 665.6 793.600338 409.9072 501.043538 117.4528z m456.6016 456.6016L934.605138 550.912 829.849938 446.1568 574.157138 701.8496 679.014738 806.6048l23.04 23.04c9.8304 9.728 22.8352 15.0528 36.7616 15.0528s26.9312-5.3248 36.7616-15.0528l182.1696-182.272c20.1728-20.1728 20.1728-53.1456-0.1024-73.3184z"  horiz-adv-x="1024" />

    
    <glyph glyph-name="duihua" unicode="&#58887;" d="M683.712 96l-89.408-148.992a96 96 0 0 0-164.608 0L340.288 96H192A160 160 0 0 0 32 256V704A160 160 0 0 0 192 864h640A160 160 0 0 0 992 704v-448a160 160 0 0 0-160-160h-148.288z m148.288 64a96 96 0 0 1 96 96V704A96 96 0 0 1 832 800H192A96 96 0 0 1 96 704v-448A96 96 0 0 1 192 160h184.512l108.032-180.096a32 32 0 0 1 54.912 0l108.032 180.096H832zM256 480m-64 0a64 64 0 1 1 128 0 64 64 0 1 1-128 0ZM512 480m-64 0a64 64 0 1 1 128 0 64 64 0 1 1-128 0ZM768 480m-64 0a64 64 0 1 1 128 0 64 64 0 1 1-128 0Z"  horiz-adv-x="1024" />

    
    <glyph glyph-name="close" unicode="&#58893;" d="M509.953388 832.756607c-246.709915 0-446.708971-200.00008-446.708971-446.708971 0-246.711961 200.00008-446.708971 446.708971-446.708971 246.711961 0 446.708971 199.998033 446.708971 446.708971C956.662359 632.756527 756.664326 832.756607 509.953388 832.756607zM735.3683 225.549222c17.933441-17.933441 17.933441-46.984081 0-64.917522-8.965186-8.965186-20.712741-13.44829-32.456203-13.44829-11.746532 0-23.493064 4.483104-32.459273 13.44829L509.953388 321.13113699999997 349.455997 160.63170000000002c-8.968256-8.965186-20.712741-13.44829-32.459273-13.44829s-23.493064 4.483104-32.459273 13.44829c-17.933441 17.933441-17.933441 46.984081 0 64.917522l160.499437 160.497391L284.537452 546.547073c-17.933441 17.933441-17.933441 46.984081 0 64.917522 17.933441 17.931395 46.984081 17.931395 64.917522 0l160.497391-160.499437 160.499437 160.499437c17.931395 17.931395 46.984081 17.931395 64.915475 0 17.933441-17.933441 17.933441-46.984081 0-64.917522L574.87091 386.046612 735.3683 225.549222z"  horiz-adv-x="1024" />

    
    <glyph glyph-name="qq-link-icon" unicode="&#58900;" d="M61.93486962 304.68105102000004c-38.16117589-89.84315677-44.35592989-175.55608917-13.72003442-191.56784469 21.13113657-11.03218461 54.25565241 14.0882011 85.26087965 60.19874816 12.27765987-50.24077141 42.65840185-95.72916338 86.05313706-132.22077326-45.51518891-16.80284786-75.24697885-44.24408178-75.24697884-75.35766187 0-51.14720711 80.45141106-92.50304455 179.74340266-92.50304455 89.56120633 0 163.73397731 33.60802589 177.42488462 77.79152327 3.67700651 0.05592405 17.82113166 0.05592405 21.38512498 0 13.74799645-44.12757333 87.97785657-77.79152327 177.48080868-77.79152327 99.29082653 0 179.74340267 41.41292658 179.74340266 92.50304455 0 31.05765603-29.70149774 58.55481401-75.24697884 75.35766187 43.33648099 36.54869902 73.82907107 81.98000185 86.0508069 132.22077326 31.00522723-46.11054706 64.04585699-71.23093277 85.20495559-60.19874816 30.66269241 16.01175552 24.61124381 101.78061198-13.68974222 191.56784469-29.98577835 70.60877767-70.66703189 122.60067101-101.78177707 134.08490837 0.45321785 4.47042901 0.67807915 9.05387122 0.67807915 13.5790592 0 27.26996651-7.57887431 52.50336541-20.53577842 73.04030891 0.22602638 1.58451485 0.22602638 3.22495374 0.22602638 4.80946859 0 12.55844523-2.99892736 24.3269632-8.09384163 34.51096633-7.86082475 183.53342237-127.35188537 329.27500061-320.70114418 329.2750006-193.46343709 0-313.00925667-145.74157824-320.78852551-329.2750006-5.14850816-10.24109227-8.11830841-22.00844515-8.11830841-34.51096633 0-1.58451485 0.11301319-3.22611883 0.17010233-4.80946859-12.84272583-20.5369435-20.42393031-45.71325326-20.42393031-73.04030891 0-4.52635307 0.17010233-9.05154105 0.56623104-13.5790592C132.68345742 427.28172203 91.86355883 375.23157447000006 61.93486962 304.68105102000004z"  horiz-adv-x="1024" />

    
    <glyph glyph-name="weixin2" unicode="&#58905;" d="M228.705882 642.462118c0-32.316235 25.592471-58.511059 57.170824-58.511059 31.593412 0 57.185882 26.194824 57.185882 58.511059 0 32.308706-25.584941 58.503529-57.185882 58.503529-31.578353-0.007529-57.170824-26.202353-57.170824-58.503529m304.941177 0c0-32.316235 25.592471-58.511059 57.163294-58.511059 31.593412 0 57.193412 26.194824 57.193412 58.511059 0 32.308706-25.6 58.503529-57.193412 58.503529-31.570824-0.007529-57.163294-26.202353-57.163294-58.503529m152.455529-292.547765c0 21.534118 17.076706 39.009882 38.128941 39.009882 21.037176 0 38.113882-17.468235 38.113883-39.009882s-17.076706-39.024941-38.113883-39.024941c-21.052235 0.007529-38.128941 17.483294-38.128941 39.024941m228.698353 0c0 21.534118 17.076706 39.009882 38.128941 39.009882 21.044706 0 38.106353-17.468235 38.106353-39.009882s-17.054118-39.024941-38.106353-39.024941c-21.052235 0.007529-38.128941 17.483294-38.128941 39.024941M235.768471 230.437647c1.430588 14.516706-20.208941 24.673882-24.538353 27.670588-82.341647 56.990118-134.972235 151.152941-134.972236 249.005177 0 171.678118 162.085647 310.881882 362.104471 310.881882 186.736941 0 340.427294-121.321412 360.003765-277.202823-171.783529-24.259765-302.840471-152.229647-302.840471-306.454589 0-11.482353 0.737882-22.829176 2.145882-33.972706a425.449412 425.449412 0 0 0-59.301647-4.148705c-50.544941 0-98.688 8.907294-142.403764 24.967529-4.374588 1.603765-19.930353 6.4-28.310589 0-18.906353-14.396235-44.257882-44.280471-44.257882-44.280471s9.276235 21.775059 12.370824 53.534118M0 508.378353c0-127.894588 70.023529-241.347765 178.048-311.966118 12.092235-7.898353-40.169412-119.243294-27.158588-126.012235 11.098353-5.812706 39.258353 15.668706 67.433412 37.142588 27.241412 20.773647 54.512941 41.554824 66.341647 37.63953 47.811765-15.819294 99.614118-24.470588 153.705411-24.470589 27.090824 0 53.601882 2.160941 79.329883 6.332236 50.944-118.693647 183.913412-203.369412 339.952941-203.369412 42.654118 0 83.576471 6.324706 121.562353 17.950118 6.181647 1.897412 30.117647-15.856941 54.121412-33.618824 24.297412-17.995294 48.647529-36.005647 54.603294-33.513412 19.124706 7.973647-34.944 97.626353-17.852236 108.250353 90.699294 56.470588 149.677176 148.126118 149.677177 251.595294 0 166.595765-152.944941 302.561882-344.96 310.264471C854.128941 741.699765 666.616471 896 438.354824 896 196.254118 896 0 722.447059 0 508.378353"  horiz-adv-x="1219" />

    
    <glyph glyph-name="pengyouquan" unicode="&#58967;" d="M512 832.284c-18.204 0-34.133 0-50.062-2.275-40.96-4.551-79.645-15.929-116.054-29.582 0 0 304.925-300.374 311.752-311.751V807.253C609.849 823.183 562.062 832.284 512 832.284z m318.578-131.982c-11.378 11.378-25.031 22.756-38.685 34.134-31.857 25.03-65.99 45.51-104.675 61.44 0 0 2.275-427.805 0-441.458l227.555 227.555c-20.48 43.236-50.062 84.196-84.195 118.33z m100.124-154.738S630.33 240.64 618.952 233.814h320.852c15.93 45.51 25.032 95.573 25.032 143.36 0 18.204 0 34.133-2.276 50.062-6.827 43.235-18.204 81.92-31.858 118.328zM484.693 199.68L712.25-27.876c43.235 22.756 84.195 50.063 118.329 84.196 40.96 40.96 72.818 88.747 95.573 141.084 0 2.276-427.804 0-441.458 2.276z m-118.329 72.818v-320.854c63.716-20.48 129.707-29.582 195.698-20.48 40.96 4.552 79.645 13.654 116.054 29.583 2.275-2.276-302.65 300.373-311.752 311.75zM334.507 404.48L106.95 176.924c4.551-9.102 9.102-18.204 13.653-25.03 27.307-50.063 65.992-93.298 109.227-127.432 31.858-25.03 65.991-45.51 104.676-61.44 0 0-2.276 427.805 0 441.458zM77.369 495.502C65.99 456.818 61.44 418.133 61.44 379.45c0-18.205 0-34.133 2.276-50.062 4.55-40.96 13.653-79.645 29.582-116.054 0 0 300.373 304.925 311.75 311.751H84.197c-2.276-11.377-4.552-20.48-6.827-29.582zM286.72 768.57c-34.133-20.48-65.991-43.236-93.298-70.542-40.96-40.96-72.818-88.747-95.573-141.085 0 0 427.804 2.276 441.458 0L311.75 784.498c-9.102-6.827-18.204-11.378-25.031-15.93z m0 0"  horiz-adv-x="1024" />

    
    <glyph glyph-name="chahao" unicode="&#58987;" d="M581.87916231 384.3867209l239.91469145 239.89731073c19.2730397 19.2737639 19.2730397 50.63581467 0 69.90885437-9.34720337 9.34720337-21.76210284 14.49479162-34.95623768 14.49479163s-25.60758591-5.14758826-34.95261669-14.49479163L511.96958375 454.29629946 272.07082463 694.19361019c-9.34647918 9.34647918-21.76065444 14.49479162-34.95406509 14.49479163s-25.60686171-5.14758826-34.95478928-14.49479163c-9.34720337-9.34720337-14.49551582-21.76137865-14.49551582-34.95478929s5.14903665-25.60758591 14.49551582-34.95551346l239.9045527-239.8849994L202.16269445 144.51475703000006c-9.34720337-9.34647918-14.49624002-21.76210284-14.49624001-34.95696187s5.14903665-25.60831011 14.49479162-34.95551348c9.33851301-9.33996142 21.75196409-14.48392868 34.95334089-14.48392867 13.24989795 0 25.66986681 5.14903665 34.95696187 14.48175609L511.9782741 314.48945367 751.88282681 74.60155748c9.33634042-9.33996142 21.74906731-14.48392868 34.95478928-14.48392867 13.22455108 0 25.6293118 5.14903665 34.91640687 14.48175609 9.34647918 9.34865177 14.49479162 21.76355123 14.49479162 34.95841026s-5.14758826 25.60831011-14.49479162 34.95623767L581.87916231 384.3867209z"  horiz-adv-x="1024" />

    
    <glyph glyph-name="danxuankuang1" unicode="&#59039;" d="M512 384m-512 0a512 512 0 1 1 1024 0 512 512 0 1 1-1024 0ZM782.628571 566.857143c-21.942857 21.942857-51.2 21.942857-73.142857 0L438.857143 296.228571 321.828571 420.571429c-21.942857 21.942857-51.2 21.942857-73.142857 0-21.942857-21.942857-21.942857-51.2 0-73.142858l160.914286-160.914285c21.942857-21.942857 51.2-21.942857 73.142857 0l299.885714 307.2c14.628571 14.628571 14.628571 51.2 0 73.142857z"  horiz-adv-x="1024" />

    
    <glyph glyph-name="lianjie" unicode="&#58935;" d="M735.877 831.758c-59.81 0-116.027-23.289-158.304-65.575l-167.91-167.907c-42.294-42.251-65.573-98.497-65.573-158.274 0-76.547 38.6-146.987 103.27-188.483 9.803-6.28 21.22-7.991 31.76-5.625 10.441 2.297 20.001 8.573 26.235 18.313 6.259 9.775 7.982 21.126 5.66 31.62-2.298 10.493-8.584 20.132-18.34 26.373-40.468 25.96-64.63 69.995-64.63 117.802 0 37.384 14.55 72.5 40.983 98.91l167.917 167.906c26.415 26.444 61.561 40.985 98.933 40.985 77.148 0 139.925-62.76 139.925-139.891 0-37.382-14.56-72.5-40.982-98.94l-79.651-79.67c-8.393-8.402-12.484-19.444-12.295-30.455 0.19-10.493 4.286-20.883 12.295-28.91 8.196-8.196 18.94-12.278 29.683-12.278 10.752 0 21.494 4.082 29.674 12.278l79.65 79.668c42.295 42.254 65.58 98.496 65.58 158.307 0 123.429-100.433 223.846-223.88 223.846z m-159.25-315.275c-9.799 6.309-21.22 8.024-31.755 5.656-10.435-2.295-20.002-8.607-26.237-18.313-6.248-9.774-7.981-21.125-5.65-31.62 2.29-10.494 8.574-20.13 18.33-26.372 40.478-25.962 64.639-69.995 64.639-117.805 0-37.38-14.558-72.498-40.985-98.94l-167.915-167.91c-26.417-26.407-61.56-40.982-98.934-40.982-77.148 0-139.923 62.795-139.923 139.922 0 37.383 14.55 72.501 40.982 98.941l79.643 79.669c8.393 8.368 12.49 19.446 12.301 30.454-0.188 10.459-4.295 20.885-12.301 28.91-8.198 8.198-18.94 12.278-29.676 12.278-10.76 0-21.492-4.08-29.682-12.278l-79.65-79.667C87.52 276.174 64.242 219.93 64.242 160.118c0-123.425 100.433-223.877 223.878-223.877 59.81 0 116.021 23.285 158.297 65.606l167.909 167.91c42.295 42.25 65.58 98.497 65.58 158.27 0.002 76.55-38.606 146.991-103.279 188.456z"  horiz-adv-x="1024" />

    
    <glyph glyph-name="weibo" unicode="&#58902;" d="M845.248 429.952c-1.344 0-2.688 0.064-4.032 0.448-9.536 2.112-15.616 11.648-13.504 21.312 11.2 49.728 6.592 84.992-13.568 104.768-33.344 32.768-100.928 16.96-101.568 16.768-9.664-2.368-19.328 3.584-21.568 13.12-2.304 9.6 3.456 19.2 13.12 21.568 3.584 0.896 87.424 20.736 134.912-25.856 29.568-29.056 37.504-75.456 23.424-138.112-1.728-8.384-9.088-14.016-17.216-14.016zM961.536 381.12c-1.344 0-2.56 0.128-3.968 0.32-12.928 2.176-21.696 14.464-19.584 27.328 20.032 121.088 3.84 205.888-48.192 252.224-80.256 71.296-223.616 30.784-225.088 30.4-12.544-3.648-25.728 3.648-29.44 16.192-3.584 12.544 3.648 25.728 16.32 29.504 6.784 2.048 169.6 48.32 269.76-40.384 65.216-57.856 86.656-157.312 63.68-295.616-1.984-11.712-12.032-19.968-23.488-19.968zM744.512 381.12s98.688 234.816-230.4 117.824c10.432 123.392-43.136 198.272-203.776 107.072 0 0-521.92-353.856-141.248-579.904 0 0 478.72-197.76 695.936 169.536 43.072 132.288-84.8 187.456-120.512 185.472zM435.648 26.559999999999945C277.312 8.447999999999979 139.136 78.84799999999996 127.104 184S233.6 389.056 391.936 407.168c158.4 18.24 296.576-52.224 308.608-157.312 12.096-105.088-106.56-205.12-264.896-223.296zM550.144 215.61599999999999c-6.528 71.936-81.024 124.032-166.336 116.288-85.312-7.744-149.184-72.256-142.656-144.256 6.528-72 80.96-124.096 166.272-116.288 85.376 7.68 149.184 72.32 142.72 144.256z m-202.368-91.328c-26.368 0-47.808 19.968-47.808 44.544 0 24.576 21.44 44.608 47.808 44.608 26.496 0 47.872-20.032 47.872-44.608 0-24.576-21.44-44.544-47.872-44.544z m82.688 75.072c-11.84 0-21.44 9.536-21.44 21.376 0 11.904 9.6 21.504 21.44 21.504s21.44-9.6 21.44-21.504c0.064-11.776-9.6-21.376-21.44-21.376z"  horiz-adv-x="1024" />

    
    <glyph glyph-name="fanhui" unicode="&#58942;" d="M272.384 423.936l399.36 399.36c22.016 22.016 57.856 22.016 79.872 0s22.016-57.856 0-79.872L392.192 384l359.424-359.424c22.016-22.016 22.016-57.856 0-79.872s-57.856-22.016-79.872 0l-399.36 399.36c-22.016 22.016-22.016 57.856 0 79.872z"  horiz-adv-x="1024" />

    
    <glyph glyph-name="wenhao" unicode="&#58985;" d="M502.8 196.9c-19.4 0-35.2 15.7-35.2 35.2v26.8c-1.1 23.8 2.1 44.9 9.8 63.3 7.6 18.4 22.8 35 45.5 49.7h-0.9c19.8 15.3 36.5 28.9 50.1 40.8 13.6 11.9 23.5 22.1 29.7 30.6 11.3 14.7 17.6 34.2 18.7 58.6 0.6 14.2-1.9 27-7.2 38.7-5.2 11.3-12.7 22.4-22.5 33.4-0.6 0.6-1.2 1.3-1.8 1.9-20.8 20.3-47.4 30.5-79.8 30.5-31.1 0-56.6-12.3-76.4-37-15.3-19-25.5-46.1-30.7-81.4-2.7-18.7-19.9-31.8-38.6-29.7-19.4 2.2-33.4 19.7-31 39.1 2.4 19.4 6.5 37.3 12.4 53.8 9.3 26 21.9 48 37.8 65.8 15.9 17.8 34.6 31.4 56.1 40.8 21.5 9.3 45 14 70.5 14 53.8 0 97.4-15.9 130.8-47.6 34.5-32.8 51.8-73.6 51.8-122.3 0-18.1-2.4-35-7.2-50.5-4.8-15.6-11.2-29.6-19.1-42-8.5-13-21-27.2-37.4-42.5s-36.8-31.4-61.1-48.4c-11.3-7.9-18.7-15.7-22.1-23.4-3.4-7.6-5.1-19.4-5.1-35.3v-27.7c0-19.4-15.7-35.2-35.2-35.2h-1.9zM504 124m-36 0a36 36 0 1 1 72 0 36 36 0 1 1-72 0Z"  horiz-adv-x="1024" />

    
    <glyph glyph-name="gantanhao-xianxingyuankuang" unicode="&#59234;" d="M555.3 180c12.1 11.8 18.1 26.1 18.1 43 0 16.7-6.1 31.2-18.1 43.3-12.1 12.1-26.6 18.2-43.3 18.2-16.7 0-31.2-6.1-43.3-18.2-12.1-12.1-18.1-26.6-18.1-43.3 0-16.8 6.1-31.1 18.1-43 9.3-9 20-14.6 31.9-16.7 3.8-0.2 7.5-0.3 11.4-0.3 3.9 0 7.6 0.1 11.4 0.3 12 2.1 22.6 7.6 31.9 16.7zM541.4 321.3c8 85.4 32 202.8 32 218.8 0 18.6-5.7 34-17.2 46.4-11.5 12.3-26.2 18.5-44.1 18.5-17.9 0-32.6-6.3-44.2-18.8-11.5-12.4-17.2-27.8-17.2-46.1 0-16 26-133.4 33-218.8h57.7zM512-64.5c-60.5 0-119.3 11.9-174.6 35.3-53.4 22.6-101.4 54.9-142.5 96.1-41.2 41.1-73.5 89.1-96.1 142.5C75.4 264.7 63.5 323.5 63.5 384s11.9 119.3 35.3 174.6c22.6 53.4 54.9 101.4 96.1 142.6 41.2 41.2 89.1 73.5 142.6 96.1 55.2 23.3 114 35.2 174.5 35.2s119.3-11.9 174.6-35.3c53.4-22.6 101.4-54.9 142.6-96.1 41.2-41.2 73.5-89.1 96.1-142.6 23.4-55.3 35.3-114.1 35.3-174.6s-11.9-119.3-35.3-174.6c-22.7-53.3-55-101.3-96.2-142.4-41.2-41.2-89.1-73.5-142.6-96.1-55.2-23.4-114-35.3-174.5-35.3z m0 832c-211.5 0-383.5-172-383.5-383.5s172-383.5 383.5-383.5 383.5 172 383.5 383.5-172 383.5-383.5 383.5z"  horiz-adv-x="1024" />

    


  </font>
</defs>
</svg>
